Guardians of the Galaxy Vol. 2 2017 (1080p Bluray x265 HEVC 10bit...

  • Category Movies
  • Type HEVC/x265
  • Language English
  • Total size 4.1 GB
  • Uploaded By UTRplus
  • Downloads 1496
  • Last checked 1 day ago
  • Date uploaded 6 days ago
  • Seeders 121
  • Leechers 48

Guardians of the Galaxy Vol. 2

ActionAdventureScience Fiction

The Guardians must fight to keep their newfound family together as they unravel the mysteries of Peter Quill's true parentage.

Infohash : 3D0D37B7BD2BEA23A7544E659FB28DD7EDC79CF5



Guardians of the Galaxy Vol. 2 2017 in 1080p, encoded with x265 in HEVC and AAC 7.1 English, with subtitles!
Encoded using the time consuming 2 pass, 10 bit color at 3048 kbps, from a Blu-ray source, for the highest quality possible.



Media Information

Code:

General
Format : Matroska
Format version : Version 4 / Version 2
File size : 3.55 GiB
Duration : 2 h 15 min
Overall bit rate : 3 746 kb/s
Encoded date : UTC 2017-08-12 08:28:54
Writing application : mkvmerge v14.0.0 ('Flow') 64bit
Writing library : libebml v1.3.4 + libmatroska v1.4.5

Video
ID : 1
Format : HEVC
Format/Info : High Efficiency Video Coding
Format profile : Main [email protected]@Main
Codec ID : V_MPEGH/ISO/HEVC
Duration : 2 h 15 min
Bit rate : 3 048 kb/s
Width : 1 920 pixels
Height : 804 pixels
Display aspect ratio : 2.40:1
Frame rate mode : Constant
Frame rate : 23.976 (24000/1001) FPS
Color space : YUV
Chroma subsampling : 4:2:0
Bit depth : 10 bits
Bits/(Pixel*Frame) : 0.082
Stream size : 2.89 GiB (81%)
Writing library : x265 2.5+6-d11482e5fedb:[Windows][GCC 7.1.0][64 bit] 10bit
Encoding settings : cpuid=1173503 / frame-threads=3 / numa-pools=8 / wpp / no-pmode / no-pme / no-psnr / no-ssim / log-level=2 / input-csp=1 / input-res=1920x804 / interlace=0 / total-frames=195313 / level-idc=0 / high-tier=1 / uhd-bd=0 / ref=4 / no-allow-non-conformance / no-repeat-headers / annexb / no-aud / no-hrd / info / hash=0 / no-temporal-layers / open-gop / min-keyint=23 / keyint=250 / bframes=4 / b-adapt=2 / b-pyramid / bframe-bias=0 / rc-lookahead=25 / lookahead-slices=4 / scenecut=40 / no-intra-refresh / ctu=64 / min-cu-size=8 / rect / no-amp / max-tu-size=32 / tu-inter-depth=1 / tu-intra-depth=1 / limit-tu=0 / rdoq-level=2 / dynamic-rd=0.00 / no-ssim-rd / signhide / no-tskip / nr-intra=0 / nr-inter=0 / no-constrained-intra / strong-intra-smoothing / max-merge=3 / limit-refs=3 / limit-modes / me=3 / subme=3 / merange=57 / temporal-mvp / weightp / no-weightb / no-analyze-src-pics / deblock=0:0 / sao / no-sao-non-deblock / rd=4 / no-early-skip / rskip / no-fast-intra / no-tskip-fast / no-cu-lossless / no-b-intra / rdpenalty=0 / psy-rd=2.00 / psy-rdoq=1.00 / no-rd-refine / analysis-reuse-mode=0 / no-lossless / cbqpoffs=0 / crqpoffs=0 / rc=abr / bitrate=3048 / qcomp=0.60 / qpstep=4 / stats-write=0 / stats-read=2 / cplxblur=20.0 / qblur=0.5 / ipratio=1.40 / pbratio=1.30 / aq-mode=3 / aq-strength=1.00 / cutree / zone-count=0 / no-strict-cbr / qg-size=32 / no-rc-grain / qpmax=69 / qpmin=0 / no-const-vbv / sar=0 / overscan=0 / videoformat=5 / range=0 / colorprim=2 / transfer=2 / colormatrix=2 / chromaloc=0 / display-window=0 / max-cll=0,0 / min-luma=0 / max-luma=1023 / log2-max-poc-lsb=8 / vui-timing-info / vui-hrd-info / slices=1 / opt-qp-pps / opt-ref-list-length-pps / no-multi-pass-opt-rps / scenecut-bias=0.05 / no-opt-cu-delta-qp / no-aq-motion / no-hdr / no-hdr-opt / no-dhdr10-opt / analysis-reuse-level=5 / scale-factor=0 / refine-intra=0 / refine-inter=0 / refine-mv=0 / no-limit-sao / ctu-info=0
Default : Yes
Forced : No

Audio #1
ID : 2
Format : AAC
Format/Info : Advanced Audio Codec
Format profile : LC
Codec ID : A_AAC
Duration : 2 h 15 min
Bit rate : 576 kb/s
Channel(s) : 8 channels
Channel positions : Front: L C R, Side: 4, LFE
Sampling rate : 48.0 kHz
Frame rate : 46.875 FPS (1024 spf)
Compression mode : Lossy
Delay relative to video : 20 ms
Stream size : 558 MiB (15%)
Language : English
Default : Yes
Forced : No

Audio #2
ID : 3
Format : AAC
Format/Info : Advanced Audio Codec
Format profile : HE-AAC / LC
Codec ID : A_AAC
Duration : 2 h 15 min
Bit rate : 66.2 kb/s
Channel(s) : 2 channels
Channel positions : Front: L R
Sampling rate : 48.0 kHz / 24.0 kHz
Frame rate : 23.438 FPS (1024 spf)
Compression mode : Lossy
Delay relative to video : 40 ms
Stream size : 63.8 MiB (2%)
Title : Commentary
Language : English
Default : No
Forced : No

Text #1
ID : 4
Format : VobSub
Muxing mode : zlib
Codec ID : S_VOBSUB
Codec ID/Info : Picture based subtitle format used on DVDs
Duration : 2 h 14 min
Bit rate : 9 937 b/s
Count of elements : 1973
Stream size : 9.59 MiB (0%)
Language : English
Default : No
Forced : No

Text #2
ID : 5
Format : VobSub
Muxing mode : zlib
Codec ID : S_VOBSUB
Codec ID/Info : Picture based subtitle format used on DVDs
Duration : 2 h 15 min
Bit rate : 20.6 kb/s
Count of elements : 2580
Stream size : 19.9 MiB (1%)
Title : Commentary
Language : English
Default : No
Forced : No

Text #3
ID : 6
Format : VobSub
Muxing mode : zlib
Codec ID : S_VOBSUB
Codec ID/Info : Picture based subtitle format used on DVDs
Duration : 2 h 14 min
Bit rate : 8 089 b/s
Count of elements : 1618
Stream size : 7.80 MiB (0%)
Language : French
Default : No
Forced : No

Text #4
ID : 7
Format : VobSub
Muxing mode : zlib
Codec ID : S_VOBSUB
Codec ID/Info : Picture based subtitle format used on DVDs
Duration : 2 h 15 min
Bit rate : 17.6 kb/s
Count of elements : 2499
Stream size : 17.1 MiB (0%)
Title : Commentary
Language : French
Default : No
Forced : No

Text #5
ID : 8
Format : VobSub
Muxing mode : zlib
Codec ID : S_VOBSUB
Codec ID/Info : Picture based subtitle format used on DVDs
Duration : 2 h 14 min
Bit rate : 8 085 b/s
Count of elements : 1604
Stream size : 7.79 MiB (0%)
Language : Spanish
Default : No
Forced : No

Text #6
ID : 9
Format : VobSub
Muxing mode : zlib
Codec ID : S_VOBSUB
Codec ID/Info : Picture based subtitle format used on DVDs
Duration : 2 h 15 min
Bit rate : 18.9 kb/s
Count of elements : 2501
Stream size : 18.3 MiB (1%)
Title : Commentary
Language : Spanish
Default : No
Forced : No

Menu
00:00:00.000 : en:Chapter 01
00:09:56.178 : en:Chapter 02
00:15:10.117 : en:Chapter 03
00:22:14.082 : en:Chapter 04
00:32:33.701 : en:Chapter 05
00:36:52.126 : en:Chapter 06
00:42:29.171 : en:Chapter 07
00:48:03.463 : en:Chapter 08
00:53:18.904 : en:Chapter 09
00:58:45.939 : en:Chapter 10
01:05:52.239 : en:Chapter 11
01:11:12.434 : en:Chapter 12
01:18:43.593 : en:Chapter 13
01:23:55.321 : en:Chapter 14
01:30:24.752 : en:Chapter 15
01:39:36.178 : en:Chapter 16
01:47:06.211 : en:Chapter 17
01:54:21.604 : en:Chapter 18
01:58:53.709 : en:Chapter 19
02:07:13.459 : en:Chapter 20


Source Information

Code:

Release : Guardians.of.the.Galaxy.Vol.2.2017.COMPLETE.BLURAY-CBGB
Complete name : title01.mkv
File size : 32.6 GiB
Duration : 2 h 15 min
Overall bit rate mode : Variable
Overall bit rate : 34.4 Mb/s


Files:

Guardians of the Galaxy Vol. 2 2017 (1080p Bluray x265 HEVC 10bit AAC 7.1 Tigole) Featurettes
  • Deleted and Extended Scenes.mkv (48.2 MB)
  • Gag Reel.mkv (42.0 MB)
  • The Making of.mkv (431.1 MB)
  • The Sneepers ft David Hasselhoff - Guardians Inferno.mkv (39.9 MB)
  • Visionary Intro.mkv (19.2 MB)
  • Guardians of the Galaxy Vol. 2 2017 (1080p x265 10bit Tigole).mkv (3.6 GB)

Comments

Code:

  • udp://tracker.torrent.eu.org:451/announce
  • udp://tracker.opentrackr.org:1337/announce
  • udp://tracker.coppersurfer.tk:6969/announce